website statistics
Star.Wars.The.Bad.Batch.S01E01.WEBRip.x264-ION10 > 외국티비 > 대한민국 No.1 바다보아

팝업레이어 알림

 [구글검색] 구글에서 바다보아 검색 - 구글에서 토렌트를 검색하실 때에 검색어 뒤에 바다보아를 꼭 붙여서 검색하세요.     바다보아에서 광고중인 웹에 문제가 있다면 상단에 나와 있는 운영자 이메일로 연락 주십시오.     사용자님의 다운로드가 완료될 때까지 저희가 함께하겠습니다. 편안하고 즐거운 시간 되십시오.


  

  

Star.Wars.The.Bad.Batch.S01E01.WEBRip.x264-ION10

댓글 : 0 조회 : 15 인증 0 신고 0
https://discord.gg/a4ee7bF and start your journey to find the Trove... good luck

Description:
https://www.imdb.com/title/tt12708542/

005a26880a670beff58b278ea9025195.md.jpg






Star.Wars.The.Bad.Batch.S01E01.WEBRip.x264-ION10

Upload provided by The Galactic Republic
Join us @ https://discord.gg/a4ee7bF and start your journey to find the Trove... good luck

Description:
https://www.imdb.com/title/tt12708542/

005a26880a670beff58b278ea9025195.md.jpg








MEDIA INFO:
Format : MPEG-4
Format profile : Base Media
Codec ID : isom (isom/iso2/avc1/mp41)
File size : 688 MiB
Duration : 1 h 11 min
Overall bit rate : 1 353 kb/s
Movie name : Star.Wars.The.Bad.Batch.S01E01.WEBRip.x264-ION10
Description : The clones of The Bad Batch find themselves in a changing galaxy after The Clone Wars.
Encoded date : UTC 2021-05-04 06:43:17
Tagged date : UTC 2021-05-04 06:43:17
Writing application : Lavf58.0.101
Comment : Star.Wars.The.Bad.Batch.S01E01.WEBRip.x264-ION10

Video
ID : 1
Format : AVC
Format/Info : Advanced Video Codec
Format profile : [email protected]
Format settings : CABAC / 5 Ref Frames
Format settings, CABAC : Yes
Format settings, Reference frames : 5 frames
Codec ID : avc1
Codec ID/Info : Advanced Video Coding
Duration : 1 h 11 min
Bit rate : 1 100 kb/s
Width : 720 pixels
Height : 306 pixels
Display aspect ratio : 2.35:1
Frame rate mode : Constant
Frame rate : 23.976 (24000/1001) FPS
Color space : YUV
Chroma subsampling : 4:2:0
Bit depth : 8 bits
Scan type : Progressive
Bits/(Pixel*Frame) : 0.208
Stream size : 555 MiB (81%)
Title : Star.Wars.The.Bad.Batch.S01E01.WEBRip.x264-ION10
Writing library : x264 core 148 r2795M aaa9aa8
Encoding settings : cabac=1 / ref=5 / deblock=1:1:1 / analyse=0x3:0x113 / me=umh / subme=9 / psy=1 / psy_rd=0.40:0.00 / mixed_ref=1 / me_range=16 / chroma_me=1 / trellis=2 / 8x8dct=1 / cqm=0 / deadzone=21,11 / fast_pskip=1 / chroma_qp_offset=-2 / threads=24 / lookahead_threads=2 / sliced_threads=0 / nr=0 / decimate=1 / interlaced=0 / bluray_compat=0 / constrained_intra=0 / bframes=5 / b_pyramid=2 / b_adapt=2 / b_bias=0 / direct=3 / weightb=1 / open_gop=0 / weightp=2 / keyint=250 / keyint_min=23 / scenecut=40 / intra_refresh=0 / rc_lookahead=50 / rc=abr / mbtree=1 / bitrate=1100 / ratetol=1.0 / qcomp=0.60 / qpmin=0 / qpmax=69 / qpstep=4 / ip_ratio=1.40 / aq=1:0.60
Encoded date : UTC 2021-05-04 06:43:17
Tagged date : UTC 2021-05-04 06:43:17
Codec configuration box : avcC

Audio
ID : 2
Format : AAC LC
Format/Info : Advanced Audio Codec Low Complexity
Codec ID : mp4a-40-2
Duration : 1 h 11 min
Duration_LastFrame : -11 ms
Bit rate mode : Constant
Bit rate : 256 kb/s
Channel(s) : 2 channels
Channel layout : L R
Sampling rate : 48.0 kHz
Frame rate : 46.875 FPS (1024 SPF)
Compression mode : Lossy
Stream size : 130 MiB (19%)
Title : Star.Wars.The.Bad.Batch.S01E01.WEBRip.x264-ION10
Language : English
Default : Yes
Alternate group : 1
Encoded date : UTC 2021-05-04 06:43:17
Tagged date : UTC 2021-05-04 06:43:17

Star.Wars.The.Bad.Batch.S01E01.WEBRip.x264-ION10
번역하기: 한국 한국어


<< 이 게시판에서 관련된 자료 목록 >>
 [구글검색] 구글에서 바다보아 검색 - 구글에서 토렌트를 검색하실 때에 검색어 뒤에 바다보아를 꼭 붙여서 검색하세요.     바다보아에서 광고중인 웹에 문제가 있다면 상단에 나와 있는 운영자 이메일로 연락 주십시오.     사용자님의 다운로드가 완료될 때까지 저희가 함께하겠습니다. 편안하고 즐거운 시간 되십시오.


  

  

IMFORMATION STORE

상단으로 가운데로 하단으로