website statistics
The.Marksman.2021.초고화질.10bit.BluRay.DTS-5.1.ESub.HEVC~The.Punish... > 영화 > 대한민국 No.1 바다보아

팝업레이어 알림

 [구글검색] 구글에서 바다보아 검색 - 구글에서 토렌트를 검색하실 때에 검색어 뒤에 바다보아를 꼭 붙여서 검색하세요.     바다보아에서 광고중인 웹에 문제가 있다면 상단에 나와 있는 운영자 이메일로 연락 주십시오.     사용자님의 다운로드가 완료될 때까지 저희가 함께하겠습니다. 편안하고 즐거운 시간 되십시오.

웹하드 파일썬

  

  

The.Marksman.2021.초고화질.10bit.BluRay.DTS-5.1.ESub.HEVC~The.Punish...

/img/jjinpl_speed.gif
『The.Marksman.2021.초고화질.10bit.BluRay.DTS-5.1.ESub.HEVC~The.Punish...』 국내 우량 기업에서 운영하는 무료 찐플에서 검색해 보세요. 토렌트를 사랑하시는 분이라면 찐플도 틀림없이 좋아하실 겁니다. 토렌트에 없는 자료라면 찐플에는 반드시 있습니다. 업로더들의 경쟁으로 높은 품질의 자료를 양껏 제공하고 있습니다. 드라마 한편을 15초 안에 다운로드 받으세요. 게다가 찐플에서는 단 5분 안에 상상을 초월하는 자료 업로드량을 제공합니다. 찐플은 대한민국 최고의 웹하드입니다. 방대한 자료량과 높은 품질의 자료 퀄리티를 제공하며, 빠른 다운로드 속도, 빠른 업데이트 속도로 사용자님을 모시고 있습니다. 6기가 완전 무료!!
71OBxCQFXjL._SL1500_.jpg



The.Marksman.2021.초고화질.10bit.BluRay.DTS-5.1.ESub.HEVC~The.PunisheR.mkv



MediaInfo:
General
Format : Matroska
Format version : Version 4
File size : 2.99 GiB
Duration : 1 h 47 min
Overall bit rate : 3 985 kb/s
Description : Encoded By - The.PunisheR
Encoded date : UTC 2021-05-03 09:38:58
Writing application : mkvmerge v56.1.0 (My Friend) 64-bit
Writing library : libebml v1.4.2 + libmatroska v1.6.4 / Lavf57.83.100

Video
ID : 1
Format : HEVC
Format/Info : High Efficiency Video Coding
Format profile : Main 10
Format level : 4
Format tier : Main
Codec ID : V_MPEGH/ISO/HEVC
Duration : 1 h 47 min
Bit rate : 3 205 kb/s
Width : 1 920 pixels
Height : 804 pixels
Display aspect ratio : 2.40:1
Frame rate mode : Constant
Frame rate : 23.976 FPS
Color space : YUV
Chroma subsampling : 4:2:0
Bit depth : 10 bits
Bits/(Pixel*Frame) : 0.087
Stream size : 2.41 GiB (80%)
Title : 초고화질 / 10bit / BluRay / HEVC ~ The.PunisheR
Language : English
Default : Yes
Forced : No
Color range : Limited
Color primaries : BT.709
Transfer characteristics : BT.709
Matrix coefficients : BT.709

Audio
ID : 2
Format : DTS
Format/Info : Digital Theater Systems
Format settings : Big
Codec ID : A_DTS
Duration : 1 h 47 min
Bit rate mode : Constant
Bit rate : 768 kb/s
Channel(s) : 6 channels
Channel layout : C L R Ls Rs LFE
Sampling rate : 48.0 kHz
Frame rate : 93.750 FPS (512 SPF)
Bit depth : 16 bits
Compression mode : Lossy
Stream size : 590 MiB (19%)
Title : DTS 5.1 / 768kbps / 48kHz ~ The.PunisheR
Language : English
Default : Yes
Forced : No

Text
ID : 3
Format : PGS
Muxing mode : zlib
Codec ID : S_HDMV/PGS
Duration : 1 h 45 min
Bit rate : 17.2 kb/s
Count of elements : 1804
Stream size : 13.0 MiB (0%)
Title : English-PGS
Language : English
Default : Yes
Forced : No

Menu
_00_00_00_000 : Chapter 01
_00_09_43_291 : Chapter 02
_00_18_06_877 : Chapter 03
_00_27_57_550 : Chapter 04
_00_40_06_445 : Chapter 05
_00_51_09_566 : Chapter 06
_01_01_57_255 : Chapter 07
_01_10_22_009 : Chapter 08
_01_20_10_138 : Chapter 09
_01_30_25_920 : Chapter 10
_01_40_41_493 : Chapter 11

Screenshots:
vlcsnap-2021-05-03-15h13m36s343.png

vlcsnap-2021-05-03-15h13m51s087.png

vlcsnap-2021-05-03-15h15m40s037.png

vlcsnap-2021-05-03-15h17m30s541.png

vlcsnap-2021-05-03-15h21m57s137.png

71OBxCQFXjL._SL1500_.jpg



The.Marksman.2021.초고화질.10bit.BluRay.DTS-5.1.ESub.HEVC~The.PunisheR.mkv



MediaInfo:
General
Format : Matroska
Format version : Version 4
File size : 2.99 GiB
Duration : 1 h 47 min
Overall bit rate : 3 985 kb/s
Description : Encoded By - The.PunisheR
Encoded date : UTC 2021-05-03 09:38:58
Writing application : mkvmerge v56.1.0 (My Friend) 64-bit
Writing library : libebml v1.4.2 + libmatroska v1.6.4 / Lavf57.83.100

Video
ID : 1
Format : HEVC
Format/Info : High Efficiency Video Coding
Format profile : Main 10
Format level : 4
Format tier : Main
Codec ID : V_MPEGH/ISO/HEVC
Duration : 1 h 47 min
Bit rate : 3 205 kb/s
Width : 1 920 pixels
Height : 804 pixels
Display aspect ratio : 2.40:1
Frame rate mode : Constant
Frame rate : 23.976 FPS
Color space : YUV
Chroma subsampling : 4:2:0
Bit depth : 10 bits
Bits/(Pixel*Frame) : 0.087
Stream size : 2.41 GiB (80%)
Title : 초고화질 / 10bit / BluRay / HEVC ~ The.PunisheR
Language : English
Default : Yes
Forced : No
Color range : Limited
Color primaries : BT.709
Transfer characteristics : BT.709
Matrix coefficients : BT.709

Audio
ID : 2
Format : DTS
Format/Info : Digital Theater Systems
Format settings : Big
Codec ID : A_DTS
Duration : 1 h 47 min
Bit rate mode : Constant
Bit rate : 768 kb/s
Channel(s) : 6 channels
Channel layout : C L R Ls Rs LFE
Sampling rate : 48.0 kHz
Frame rate : 93.750 FPS (512 SPF)
Bit depth : 16 bits
Compression mode : Lossy
Stream size : 590 MiB (19%)
Title : DTS 5.1 / 768kbps / 48kHz ~ The.PunisheR
Language : English
Default : Yes
Forced : No

Text
ID : 3
Format : PGS
Muxing mode : zlib
Codec ID : S_HDMV/PGS
Duration : 1 h 45 min
Bit rate : 17.2 kb/s
Count of elements : 1804
Stream size : 13.0 MiB (0%)
Title : English-PGS
Language : English
Default : Yes
Forced : No

Menu
_00_00_00_000 : Chapter 01
_00_09_43_291 : Chapter 02
_00_18_06_877 : Chapter 03
_00_27_57_550 : Chapter 04
_00_40_06_445 : Chapter 05
_00_51_09_566 : Chapter 06
_01_01_57_255 : Chapter 07
_01_10_22_009 : Chapter 08
_01_20_10_138 : Chapter 09
_01_30_25_920 : Chapter 10
_01_40_41_493 : Chapter 11

Screenshots:
vlcsnap-2021-05-03-15h13m36s343.png

vlcsnap-2021-05-03-15h13m51s087.png

vlcsnap-2021-05-03-15h15m40s037.png

vlcsnap-2021-05-03-15h17m30s541.png

vlcsnap-2021-05-03-15h21m57s137.png


Code:


Source : The.Marksman.2021.초고화질.BluRay.REMUX.AVC.DTS-HD.MA.5.1-FGT



ECBTP.png

The.Marksman.2021.초고화질.10bit.BluRay.DTS-5.1.ESub.HEVC~The.Punish...
번역하기: 한국 한국어


<< 이 게시판에서 관련된 자료 목록 >>
 [구글검색] 구글에서 바다보아 검색 - 구글에서 토렌트를 검색하실 때에 검색어 뒤에 바다보아를 꼭 붙여서 검색하세요.     바다보아에서 광고중인 웹에 문제가 있다면 상단에 나와 있는 운영자 이메일로 연락 주십시오.     사용자님의 다운로드가 완료될 때까지 저희가 함께하겠습니다. 편안하고 즐거운 시간 되십시오.

웹하드 파일몽

  

  

IMFORMATION STORE

상단으로 가운데로 하단으로