website statistics
Without.Remorse.2021.HDRip.XviD.B4ND1T69 > 영화 > 대한민국 No.1 바다보아

팝업레이어 알림

 [구글검색] 구글에서 바다보아 검색 - 구글에서 토렌트를 검색하실 때에 검색어 뒤에 바다보아를 꼭 붙여서 검색하세요.     바다보아에서 광고중인 웹에 문제가 있다면 상단에 나와 있는 운영자 이메일로 연락 주십시오.     사용자님의 다운로드가 완료될 때까지 저희가 함께하겠습니다. 편안하고 즐거운 시간 되십시오.


  

  

Without.Remorse.2021.HDRip.XviD.B4ND1T69

댓글 : 0 조회 : 8 인증 0 신고 0
MV5BNzcwYTUxYzctYTQ5My00YzY5LTk3YzItOTliMzRiOTZlMGI3XkEyXkFqcGdeQXVyMTEyMjM2NDc2._V1_UX182_CR0,0,182,268_AL_.jpg


Director: Stefano Sollima
Writers: Taylor Sheridan (screenplay by), Will Staples (screenplay by)
Stars: Michael B. Jordan, Jodie Turner-Smith, Jamie Bell

Plot/Story:
John Clark, a Navy SEAL, goes on a path to avenge his wifes murder only to find himself inside of a larger conspiracy.

General
Complete name : Without.Remorse.2021.HDRip.XviD.B4ND1T69.avi
Format : AVI
Format/Info : Audio Video Interleave
File size : 625 MiB
Duration : 1 h 49 min
Overall bit rate : 799 kb/s
Subtitles : Yes...Hardcoded for non-English parts + file included(HI)

Video
ID : 0
Format : MPEG-4 Visual
Format profile : Advanced [email protected]
Format settings, BVOP : 2
Format settings, QPel : No
Format settings, GMC : No warppoints
Format settings, Matrix : Default (H.263)
Codec ID : XVID
Codec ID/Hint : XviD
Duration : 1 h 49 min
Bit rate : 658 kb/s
Width : 720 pixels
Height : 304 pixels
Display aspect ratio : 2.35:1
Frame rate : 23.976 (24000/1001) FPS
Color space : YUV
Chroma subsampling : 4:2:0
Bit depth : 8 bits
Scan type : Progressive
Compression mode : Lossy
Bits/(Pixel*Frame) : 0.125
Stream size : 515 MiB (82%)
Writing library : XviD 64

Audio
ID : 1
Format : MPEG Audio
Format version : Version 1
Format profile : Layer 3
Codec ID : 55
Codec ID/Hint : MP3
Duration : 1 h 49 min
Bit rate mode : Constant
Bit rate : 128 kb/s
Channel(s) : 2 channels
Sampling rate : 48.0 kHz
Compression mode : Lossy
Stream size : 100 MiB (16%)
Alignment : Aligned on interleaves
Interleave, duration : 24 ms (0.58 video frame)

Screenshots:

without-remorse-1.png

without-remorse-2.png

without-remorse-3.png

without-remorse-4.png

without-remorse-5.png

without-remorse-6.png

without-remorse-7.png

without-remorse-8.png

Without.Remorse.2021.HDRip.XviD.B4ND1T69

MV5BNzcwYTUxYzctYTQ5My00YzY5LTk3YzItOTliMzRiOTZlMGI3XkEyXkFqcGdeQXVyMTEyMjM2NDc2._V1_UX182_CR0,0,182,268_AL_.jpg


Director: Stefano Sollima
Writers: Taylor Sheridan (screenplay by), Will Staples (screenplay by)
Stars: Michael B. Jordan, Jodie Turner-Smith, Jamie Bell

Plot/Story:
John Clark, a Navy SEAL, goes on a path to avenge his wifes murder only to find himself inside of a larger conspiracy.

General
Complete name : Without.Remorse.2021.HDRip.XviD.B4ND1T69.avi
Format : AVI
Format/Info : Audio Video Interleave
File size : 625 MiB
Duration : 1 h 49 min
Overall bit rate : 799 kb/s
Subtitles : Yes...Hardcoded for non-English parts + file included(HI)

Video
ID : 0
Format : MPEG-4 Visual
Format profile : Advanced [email protected]
Format settings, BVOP : 2
Format settings, QPel : No
Format settings, GMC : No warppoints
Format settings, Matrix : Default (H.263)
Codec ID : XVID
Codec ID/Hint : XviD
Duration : 1 h 49 min
Bit rate : 658 kb/s
Width : 720 pixels
Height : 304 pixels
Display aspect ratio : 2.35:1
Frame rate : 23.976 (24000/1001) FPS
Color space : YUV
Chroma subsampling : 4:2:0
Bit depth : 8 bits
Scan type : Progressive
Compression mode : Lossy
Bits/(Pixel*Frame) : 0.125
Stream size : 515 MiB (82%)
Writing library : XviD 64

Audio
ID : 1
Format : MPEG Audio
Format version : Version 1
Format profile : Layer 3
Codec ID : 55
Codec ID/Hint : MP3
Duration : 1 h 49 min
Bit rate mode : Constant
Bit rate : 128 kb/s
Channel(s) : 2 channels
Sampling rate : 48.0 kHz
Compression mode : Lossy
Stream size : 100 MiB (16%)
Alignment : Aligned on interleaves
Interleave, duration : 24 ms (0.58 video frame)

Screenshots:

without-remorse-1.png

without-remorse-2.png

without-remorse-3.png

without-remorse-4.png

without-remorse-5.png

without-remorse-6.png

without-remorse-7.png

without-remorse-8.png


Please Seed For As Long As Possible
Or At Least 1:1 Ratio...Thanks
Enjoy Peeps

Without.Remorse.2021.HDRip.XviD.B4ND1T69
번역하기: 한국 한국어


<< 이 게시판에서 관련된 자료 목록 >>
 [구글검색] 구글에서 바다보아 검색 - 구글에서 토렌트를 검색하실 때에 검색어 뒤에 바다보아를 꼭 붙여서 검색하세요.     바다보아에서 광고중인 웹에 문제가 있다면 상단에 나와 있는 운영자 이메일로 연락 주십시오.     사용자님의 다운로드가 완료될 때까지 저희가 함께하겠습니다. 편안하고 즐거운 시간 되십시오.


  

  
New
16210481338247.jpg

새글 [ 마지막 방위 ] (김민종,이경영,허준호)

댓글 0 | 조회 1 | 인증 0 | 신고 0

IMFORMATION STORE

상단으로 가운데로 하단으로